#TITLE:to love you;
#SUBTITLE:;
#ARTIST:Unknown artist;
#TITLETRANSLIT:;
#SUBTITLETRANSLIT:;
#ARTISTTRANSLIT:;
#CREDIT:;
#BANNER:;
#BACKGROUND:;
#LYRICSPATH:;
#CDTITLE:;
#MUSIC:to love you.mp3;
#OFFSET:-0.020;
#SAMPLESTART:100.000;
#SAMPLELENGTH:12.000;
#SELECTABLE:YES;
#BPMS:0.000=90.000,30.125=220.001,32.000=220.000;
#STOPS:;
#BGCHANGES:;
// cache tags:
#FIRSTBEAT:0.000;
#LASTBEAT:336.000;
#SONGFILENAME:Songs/Music V.I.P ^_^/T+pazolite - to love you/to love you.sm;
#HASMUSIC:1;
#HASBANNER:0;
#MUSICLENGTH:284.346;
// end cache tags

//---------------dance-single - ----------------
#NOTES:
     dance-single:
     :
     Easy:
     1:
     0.259,0.724,0.520,0.000,0.135,367.000,148.000,0.000,0.000,1.000:
0100
0001
1000
0001
,
0000
0010
0001
0000
0000
0000
0000
0000
0000
0000
0000
0000
0000
0000
0000
0000
0100
0000
0000
0000
0000
0000
0000
0000
0010
0000
0000
0000
0000
0000
0000
0000
0000
0001
0010
0000
0000
0000
0000
0000
0000
0000
0000
0000
0000
0000
0000
0000
0010
0000
0000
0000
0000
0000
0000
0000
0000
0000
0000
0000
0100
0000
0000
0000
,
0010
0000
0100
0000
0000
0000
0000
0000
0000
0000
0000
0000
0000
0000
0000
0000
0010
0000
0000
0000
0000
0000
0000
0000
0000
0000
0000
0000
0000
0000
0000
0000
0000
0001
0010
0000
0000
0000
0000
0000
0000
0000
0000
0000
0000
0000
0000
0000
0010
0000
0000
0000
0000
0000
0000
0000
0000
0000
0000
0000
0000
0000
0000
0000
,
0000
0001
0010
0000
0000
0000
0000
0000
0000
0000
0000
0000
0000
0000
0000
0000
0100
0000
0000
0000
0000
0000
0000
0000
0010
0000
0000
0000
0000
0000
0000
0000
0000
0001
0010
0000
0000
0000
0000
0000
0000
0000
0000
0000
0000
0000
0000
0000
1000
0000
0000
0000
0000
0000
0000
0000
0000
0000
0000
0000
0000
0000
0000
0000
,
0100
0001
1000
0001
,
0000
0010
0001
0000
0000
0000
0000
0000
0000
0000
0000
0000
0000
0000
0000
0000
1000
0000
0000
0000
0000
0000
0000
0000
0100
0000
0000
0000
0000
0000
0000
0000
0000
0001
0010
0000
0000
0000
0000
0000
0000
0000
0000
0000
0000
0000
0000
0000
0100
0000
0000
0000
0000
0000
0000
0000
0000
0000
0000
0000
0000
0000
0000
0000
,
0000
0010
0001
0000
0000
0000
0000
0000
0000
0000
0000
0000
0000
0000
0000
0000
0100
0000
0000
0000
0000
0000
0000
0000
1000
0000
0000
0000
0000
0000
0000
0000
0000
1000
0100
0000
0000
0000
0000
0000
0000
0000
0000
0000
0000
0000
0000
0000
0100
0000
0000
0000
0000
0000
0000
0000
0000
0000
0000
0000
0000
0000
0000
0000
,
0000
0010
0001
0000
0000
0000
0000
0000
0000
0000
0000
0000
0000
0000
0000
0000
1000
0000
0000
0000
0000
0000
0000
0000
0000
0000
0000
0000
0000
0000
0001
0000
0100
0000
0010
0000
0000
0000
0000
0000
0000
0000
0000
0000
0000
0000
0000
0000
0000
0000
0000
0000
0000
0000
0000
0000
0000
0000
0000
0000
0000
0000
0000
0000
,
0000
0000
0000
0000
,
0000
0000
0000
0000
,
0000
0000
0000
0000
,
0000
0000
0000
0000
,
0000
1010
0000
0101
0000
1100
1100
0011
,
0011
0100
0100
0010
0010
0100
0100
0010
,
0010
0100
0010
0100
0001
0100
0010
0100
,
1000
0110
0100
0010
0010
0100
0100
0010
,
0010
0100
0010
0100
0001
0100
0010
0101
,
1000
0110
0100
0010
0010
0100
0100
0010
,
0010
0100
0010
0100
0001
0100
0010
0100
,
1000
0110
0100
0010
0010
0100
0100
0010
,
0010
1100
0010
0101
0001
0110
0110
0101
,
1100
0110
0100
0010
0010
0100
0100
0010
,
0010
0100
0010
0100
0001
0100
0010
0100
,
1000
0110
0100
0010
0010
0100
0100
0010
,
0010
0100
0010
0100
0001
0100
0010
0101
,
1000
0110
0100
0010
0010
0100
0100
0010
,
0010
0100
0010
0100
0001
0100
0010
0100
,
1000
0110
0100
0010
0010
0100
0100
0010
,
0010
1100
0010
0101
0001
0110
0110
0101
,
1100
0110
0000
0000
0000
0000
0000
0000
,
0000
0110
0110
0011
0011
0110
0110
0011
,
0011
0110
0011
0110
0101
0110
0011
0110
,
1100
0011
1100
0000
0101
0000
0110
0000
0110
0000
1100
0000
1100
0000
0110
0000
,
0110
0000
0000
0000
0011
0000
0100
0000
1000
0001
0010
0100
1000
0000
0010
0000
1001
0100
0010
0001
1100
0000
0001
0000
1100
0001
0010
0100
1000
0000
0000
0000
,
1010
0110
0110
0011
0011
0110
0110
0011
,
0011
0110
0011
0110
0101
0110
0011
0110
,
1001
0110
1001
0000
0110
0000
0011
0000
0011
0000
0110
0000
0110
0000
0011
0000
,
0011
0000
0000
0000
0110
0000
0000
0000
1010
0000
0001
0000
1100
0000
0010
0000
0101
0000
0010
0000
1100
0000
0000
0000
0010
0100
1000
0000
0001
0010
0100
1000
,
0001
0010
0100
0000
0011
0000
0000
0000
0011
0000
0000
0000
1100
0000
0000
0000
1100
0000
0000
0000
0011
0000
0000
0000
0011
0000
0000
0000
1100
0000
0000
0000
,
1100
0011
0110
1010
1100
0011
0110
1010
,
0011
1100
0011
0000
1010
0000
0110
0000
0110
0000
0011
0000
0011
0000
0110
0000
,
0110
0000
0000
0000
1010
0000
0001
0000
1000
0100
0010
0001
0100
0000
0010
0000
1000
0100
0010
0001
0100
0000
0000
0000
0010
1000
0000
0000
0100
0000
0000
0000
,
1000
0010
0000
0000
0110
0000
0000
0000
0110
0000
0000
0000
0011
0000
0000
0000
0011
0000
0000
0000
0110
0000
0000
0000
0110
0000
0000
0000
0011
0000
0000
0000
,
0011
0110
0011
0110
0101
1010
0011
0110
,
1100
0001
0110
0000
0110
0000
0011
0000
0011
0000
0110
0000
0110
0000
0011
0000
,
0011
0000
0000
0000
0110
0000
0000
0000
0101
0010
0100
1000
0011
1000
0100
0010
1100
0001
0010
0000
0110
0000
0000
0000
0101
1000
0100
1000
0110
1000
0100
1000
,
0101
1000
0100
1000
0011
0000
0000
0000
0000
0000
0000
0000
0000
0000
0000
0000
0000
0000
0000
0000
0000
0000
0000
0000
0000
0000
0000
0000
0000
0000
0000
0000
,
0000
0000
0000
0000
,
0000
0000
0000
0000
,
0000
0000
0000
0000
,
0000
0000
0000
0000
,
0000
0000
0000
0000
,
0000
0000
0000
0000
,
0000
0000
0000
0000
,
0000
0000
0000
0000
,
0000
0000
0000
0000
,
0000
0000
0000
0000
,
0000
0000
0000
0000
,
0000
0000
0000
0000
,
0000
0000
0000
0000
,
0000
0000
0000
0000
,
0000
0000
0000
0000
,
0000
0000
0000
0000
,
0000
0000
0000
0000
,
0000
0000
0000
0000
,
0000
0000
0000
0000
,
0000
0000
0000
0000
,
0000
0000
0000
0000
,
0000
0000
0000
0000
,
0000
0000
0000
0000
,
0000
0000
0000
0000
,
0000
0000
0000
0000
,
0000
0000
0000
0000
,
0000
0000
0000
0000
,
0000
0000
0000
0000
,
0000
0000
0000
0000
,
0000
0000
0000
0000
,
0000
0000
0000
0000
,
0000
0000
0000
0000
,
0000
0000
0000
0000
,
0000
0000
0000
0000
,
0000
0000
0000
0000
,
0000
0000
0000
0000
,
0000
0000
0000
0000
,
1110
0000
0000
0000
;
